#TITLE:快D快乐;
#SUBTITLE:;
#ARTIST:陈慧琳;
#TITLETRANSLIT:;
#SUBTITLETRANSLIT:;
#ARTISTTRANSLIT:;
#CREDIT:;
#BANNER:D-LOGO.jpg;
#BACKGROUND:D.jpg;
#LYRICSPATH:;
#CDTITLE:Lan.png;
#MUSIC:D.mp3;
#OFFSET:-0.120;
#SAMPLESTART:100.000;
#SAMPLELENGTH:12.000;
#SELECTABLE:YES;
#BPMS:0.000=140.000;
#STOPS:;
#BGCHANGES:;
// cache tags:
#FIRSTBEAT:4.000;
#LASTBEAT:372.000;
#SONGFILENAME:Songs/Super Dancer Online/kuaiDkuaile/D.sm;
#HASMUSIC:1;
#HASBANNER:1;
#MUSICLENGTH:165.028;
// end cache tags

//---------------dance-single - sky----------------
#NOTES:
     dance-single:
     sky:
     Hard:
     10:
     0.832,0.902,1.000,0.018,0.676,771.000,183.000,3.000,0.000,12.000:

0000
0000
0000
0000
,
1000
0100
0000
0000
0010
0001
0000
0000
0000
0100
1000
0000
0000
0000
0001
0010
0100
0000
1000
0100
0000
0000
0000
0000
,
0001
0010
0000
0000
0100
1000
0000
0000
0000
0010
0001
0000
0000
0000
1000
0100
0010
0000
0001
0010
0000
0000
0000
0000
,
0010
0100
0000
0000
0010
0100
0000
0000
0000
0100
1000
0000
0000
0000
0100
1000
0100
0000
0010
0001
0000
0000
0000
0000
,
0100
0010
0000
0000
0100
0010
0000
0000
0000
0010
0001
0000
0000
0000
0100
1000
0100
0000
1000
0100
0000
0000
0000
0000
,
1000
0100
0000
0000
0010
0001
0000
0000
0000
0100
1000
0000
0000
0000
0001
0010
0100
0000
1000
0100
0000
0000
0000
0000
,
0010
0100
0000
0000
0010
0001
0000
0000
0000
0100
1000
0000
0000
0000
0100
0010
0001
0000
0010
0001
0000
0000
0000
0000
,
1000
0100
0000
0000
0100
1000
0000
0000
0000
0001
0010
0000
0000
0000
0001
0010
0100
0000
1000
0100
0000
0000
0000
0000
,
0001
0010
0000
0000
0010
0001
0000
0000
0000
0100
1000
0000
0000
0000
0100
1000
0100
0000
0010
0001
0000
0000
0000
0000
,
1001
0000
0000
0000
0000
0110
0000
0000
0000
1000
0000
0000
0100
0010
0100
0010
0100
0010
0100
0010
0100
0010
0000
0000
,
0101
0000
0000
0000
0000
1010
0000
0000
0000
0100
0000
0000
0001
0010
0001
0010
0000
0000
0010
0000
0000
0000
0000
0000
,
0001
0010
0000
0000
0010
0001
0000
0000
0000
0100
1000
0000
0000
0000
0100
1000
0100
0000
0010
0001
0000
0000
0000
0000
,
0010
0001
0000
0000
0001
0010
0000
0000
0000
1000
0100
0000
0000
0000
0001
1000
0100
0000
0010
0001
0000
0000
0000
0000
,
0001
0010
0000
0000
0100
1000
0000
0000
0000
0100
1000
0000
0000
0000
0001
1000
0010
0000
0100
1000
0000
0000
0000
0000
,
0001
0010
0000
0000
0010
0001
0000
0000
0000
0100
1000
0000
0000
0000
0100
1000
0100
0000
0010
0001
0000
0000
0000
0000
,
0010
0001
0000
0000
0001
0010
0000
0000
0000
1000
0100
0000
0000
0000
0001
1000
0100
0000
0010
0001
0000
0000
0000
0000
,
0010
0100
0000
0000
1000
0100
0000
0000
0000
0100
0010
0000
0000
0000
0001
1000
0010
0000
0010
0100
0000
0000
0000
0000
,
1000
0100
0000
0000
1000
0100
0000
0000
0000
1000
0100
0000
0000
0000
0001
0100
0010
0000
0001
0010
0000
0000
0000
0000
,
0001
0010
0000
0000
0001
0010
0000
0000
0000
0001
0010
0000
0000
0000
1000
0100
0010
0000
0100
1000
0000
0000
0000
0000
,
0100
0010
0000
0000
0100
0010
0000
0000
0000
0010
0100
0000
0000
0000
0001
0100
0010
0000
0100
0001
0000
0000
0000
0000
,
0110
0010
0001
0010
0110
1000
0100
0010
,
0011
0010
0100
1000
0110
1000
0100
1000
,
1100
0100
0010
0001
0110
0001
0010
0001
,
1100
0100
0010
0011
1000
0100
1100
0010
,
0100
0011
0010
0100
0011
0100
0010
1100
,
0100
0001
0110
0010
1000
0110
1000
0100
,
0100
1100
0100
0011
0001
0110
0001
0110
,
0100
0011
0100
0110
1000
0110
0100
1010
,
1000
0101
0010
0101
0010
0110
1000
0110
,
0010
1100
1000
0110
0010
0101
0010
0101
,
0010
1001
0010
0101
1000
0110
1000
0110
,
1100
0110
0011
0110
,
1100
0010
1100
0010
0110
1000
0011
1100
,
0100
1010
1000
1010
0001
1010
0100
1010
,
0100
0110
1000
0110
0100
1100
0001
0110
,
1100
0000
1100
0000
0001
0010
0100
1000
,
0100
0010
0100
0010
,
1000
0100
1000
0100
,
0001
0010
0001
0010
,
1100
0110
0011
0110
,
1001
0000
0000
0000
0000
0000
0101
0000
0000
0010
0000
0000
1001
0000
0000
0100
0000
0000
0010
0000
0010
0000
0000
0000
,
1001
0000
0100
0000
0001
0010
0000
0000
0101
0000
0000
0000
0001
0000
0000
0000
,
1001
0000
0101
1000
0101
1000
0011
0010
,
1000
0000
0100
0000
1000
0000
0100
0000
1010
0001
0010
0001
1010
0001
0010
0001
,
1010
0001
1100
0010
1100
1000
0101
0100
,
1010
0000
0000
0000
0100
0000
0000
0000
0110
0000
0000
0000
1000
0000
0000
0000
0110
0000
0000
0000
0100
0000
0000
0000
1010
0000
0000
0100
0000
0000
0000
0000
,
1001
0100
1001
0100
0011
1000
0011
0100
,
1001
0000
0100
0000
0011
0000
0010
0000
0101
0000
1000
0000
0001
0010
0100
0000
,
0001
0010
0101
0100
1100
0010
0011
0100
,
1000
0100
1010
0001
1001
0010
1100
0000
,
2000
0000
0110
0101
0110
0011
0101
0000
,
3002
0000
1010
0110
1100
0110
1010
0000
,
0013
0010
1100
0100
0011
0010
1100
0100
,
1100
0000
0001
0000
0110
0000
1000
0000
0011
0000
0010
0000
1010
0100
1000
0000
,
1000
0000
1001
0010
1100
0010
1010
0010
,
1001
0000
0010
0000
1100
0000
0010
0000
0101
0000
0001
0000
1000
0100
0010
0000
,
0001
0110
1001
0100
1001
0100
1001
0100
,
1000
0100
1001
0010
1001
0010
1001
0100
,
1000
0100
0010
0001
0010
0100
1000
0100
,
0010
0001
0010
0100
1000
0100
0010
0001
,
1000
0100
1000
0100
0000
0000
0010
0000
0000
0000
0000
0000
1000
0100
1000
0100
0000
0000
0010
0000
0000
0000
0000
0000
,
0010
0100
0010
0100
0000
0000
1000
0000
0000
0000
0000
0000
0010
0100
0010
0100
0000
0000
1000
0000
0000
0000
0000
0000
,
0001
0010
0100
1000
0000
0000
0100
0000
0000
0000
0000
0000
1000
0100
0010
0001
0000
0000
0100
0000
0000
0000
0000
0000
,
0001
0010
0100
1000
0000
0000
0010
0000
0000
0000
0000
0000
1000
0100
0010
0001
0000
0000
0010
0000
0000
0000
0000
0000
,
0011
0011
0011
0011
,
1100
1100
0000
1100
0000
1100
0000
0000
,
1100
1100
1100
1100
,
0011
0011
0000
0011
0000
0011
0000
0000
,
0000
0000
1000
0100
0010
0001
0000
0100
,
0000
0000
0001
0000
0100
0000
0000
0000
1000
0000
0000
0000
0100
0000
0000
0011
,
1100
0000
0000
0000
1000
0100
0010
0000
0000
0000
0100
0000
1000
0000
0000
0000
,
0000
0001
0000
0100
0000
1000
0010
0000
,
1111
0000
1000
0100
0010
0000
0001
0010
,
0100
0000
0000
0000
0000
0000
1000
0000
0000
0000
0001
0000
0010
0000
0000
1100
,
0011
1000
0100
0010
0001
0010
0001
0010
,
0100
1000
0100
0010
0001
0010
0100
1000
,
0110
0110
1001
0110
0110
1001
0110
0110
,
1001
0000
0011
0000
0110
0000
1100
0000
0110
0000
0011
0000
0010
0100
1000
0000
,
0100
0010
1100
0010
0011
0100
1100
0100
,
1100
0000
0010
0000
1100
0000
0010
0000
0011
0000
0001
0000
0001
0010
0100
0000
,
0001
0110
1001
0010
1001
0100
1001
0010
,
1010
0100
1001
0100
1001
0010
1001
0000
,
0101
0010
0011
0010
0101
0010
1001
1000
,
1000
0100
0011
0010
1100
0100
0011
0010
,
1000
0100
0000
0000
0010
0001
0000
0000
0000
0100
1000
0000
0000
0001
0010
0000
0000
0000
1000
0100
0000
0000
0000
0000
,
0001
0010
0000
0000
0100
1000
0000
0000
0000
0100
0010
0000
0000
0000
0100
0010
0001
0000
0001
0010
0000
0000
0000
0000
,
1000
0100
0000
0000
0010
0001
0000
0000
0000
0100
1000
0000
0000
0000
0001
0010
0100
0000
1000
0100
0000
0000
0000
0000
,
0001
0010
0000
0000
0100
1000
0000
0000
0000
0100
0010
0000
0000
0000
0100
0010
0001
0000
0100
1000
0000
0000
0000
0000
,
1001
0010
0000
0000
0001
0010
0000
0000
0000
2001
0010
0000
0000
0000
0001
0010
0001
0000
0010
0001
0000
0000
0000
0000
,
0001
0010
0000
0000
0001
0010
0000
0000
0000
0001
0010
0000
3000
0000
0001
0010
0001
0000
1010
0001
0000
1000
0000
0000
,
0010
0100
0000
0000
0100
1000
0000
0000
0000
0001
0010
0000
0000
0000
0100
1000
0100
0000
0010
0001
0000
0000
0000
0000
,
0010
0100
0000
0000
0001
0010
0000
0000
0000
0100
1000
0000
0000
0000
0001
0010
0001
0000
1000
0100
0000
0000
0010
0100
,
0000
0000
0000
0001
0010
0000
0000
0000
0000
0100
1000
0000
0000
0000
0001
0010
0001
0000
1000
0100
0000
0000
0000
0000
,
1111
0000
0000
0000
;
